Groove3 – Ozone 5 Explained [ENG]

By | December 29, 2016
Sponsored Links

BREAK THE OZONE LAYER TODAY
iZotope Ozone 5 is now considered the “go to” plug-in for mastering and polishing sounds inside your DAW. Professional mix engineer Michael Costa takes you deep into this wondrous and powerful plug-in, breaking it down step by step.

Michael starts at the beginning, giving you detailed overviews of the user interface and common controls. He then delves into the powerful EQ module and how to use the “Match EQ” feature to take the sound of your favorite recording and impose it on your track. Next Michael gets into MS Processing, the Reverb

Module, Crossover Network and the awesome Harmonic Exciter.
Michael then goes deeper, diving into the fantastic Dynamics section that spans 3 parts. Next up is Stereo Imaging, Maximizing, General Options, and then some tutorials specifically for the Ozone 5 “Advanced” version users.

If you use or want to use Ozone 5, get the most out of it with the most comprehensive video series available … Watch “Ozone 5 Explained” today.

 

Product Highlights
18 Tutorials / Over 3.5 Hours Total Runtime
For all beginner to intermediate iZotope Ozone 5 users
Tutorials written by studio master Michael Costa
Simple to use video control interface for Mac & PC
Viewing Options: Online, Download, Boxed Disc, iDevices

 

Content
Introduction
The Interface
The EQ Module
Matching EQ
MS Processing
Reverb Module
Crossover Network
Harmonic Exciter
Dynamics Pt. 1
Dynamics Pt. 2
Dynamics Pt. 3
Stereo Imaging
Maximizer: Limiter
Maximizer: Dither
General Options
Meter Bridge
Meter Taps
Basic vs Advanced
MI
Video
ID: 1
Format: AVC
Format / Info: Advanced Video Codec
Format profile: [email protected]
Format settings, CABAC: Yes
Format settings, ReFrames: 4 frames
Codec ID: avc1
Codec ID / Info: Advanced Video Coding
Duration: 2mn 13s
Bit rate mode: Variable
Bit rate: 272 Kbps
Nominal bit rate: 258 Kbps
Width: 1024 pixels
Height: 768 pixels
Display aspect ratio: 4: 3
Frame rate mode: Constant
Frame rate: 30.000 fps
Color space: YUV
Chroma subsampling: 4: 2: 0
Bit depth: 8 bits
Scan type: Progressive
Bits / (Pixel * Frame): 0.012
Stream size: 4.34 MiB (64%)
Writing library: x264 core 112
Encoded date: UTC 2012-06-27 14:28:02
Tagged date: UTC 2012-06-27 14:28:21
Color primaries: BT.709-5, BT.1361, IEC 61966-2-4, SMPTE RP177
Transfer characteristics: BT.709-5, BT.1361
Matrix coefficients: BT.709-5, BT.1361, IEC 61966-2-4 709, SMPTE RP177
Audio
ID: 2
Format: AAC
Format / Info: Advanced Audio Codec
Format profile: LC
Codec ID: 40
Duration: 2mn 13s
Bit rate mode: Variable
Bit rate: 144 Kbps
Maximum bit rate: 175 Kbps
Channel (s): 2 channels
Channel positions: Front: LR
Sampling rate: 44.1 KHz
Compression mode: Lossy
Stream size: 2.33 MiB (35%)
Language: English
Encoded date: UTC 2012-06-27 14:28:02
Tagged date: UTC 2012-06-27 14:28:21
Sponsored Links
Loading Facebook Comments ...

Leave a Reply

Your email address will not be published. Required fields are marked *