Computer Music – Special CM61 Epic Fx + Content Disk [ENG]

By | January 2, 2017
Sponsored Links

Computer Music Special is a bi-monthly magazine from the creators of Computer Music. Computer Music Specials help you get to grips with wide ranging music topics, including top production techniques, sampling, popular software, sequencers, and tips on how to make it in the music industry. Computer Music Specials surrounds you in musical knowledge and inspiration from all genres, whether you DJ or play guitar and no matter your level, you’ll find invaluable tips to help you create your best music yet.

Including
Tutorial files
Tutorial videos
Sample Magic samples
Alchemy Player CM
CM Plugins for Mac
CM Plugins for PC

MediaInfo
Video
ID : 1
Format : AVC
Format/Info : Advanced Video Codec
Format profile : [email protected]
Format settings, CABAC : Yes
Format settings, ReFrames : 4 frames
Codec ID : avc1
Codec ID/Info : Advanced Video Coding
Duration : 4mn 5s
Bit rate mode : Variable
Bit rate : 233 Kbps
Width : 1 280 pixels
Height : 800 pixels
Display aspect ratio : 1.600
Frame rate mode : Variable
Frame rate : 19.437 fps
Minimum frame rate : 1.000 fps
Maximum frame rate : 30.000 fps
Color space : YUV
Chroma subsampling : 4:2:0
Bit depth : 8 bits
Scan type : Progressive
Bits/(Pixel*Frame) : 0.012
Stream size : 6.81 MiB (41%)
Writing library : x264 core 130 r2273 b3065e6
Tagged date : UTC 2013-07-16 16:51:03
Color primaries : BT.709
Transfer characteristics : BT.709
Matrix coefficients : BT.709
Audio
ID : 2
Format : AAC
Format/Info : Advanced Audio Codec
Format profile : LC
Codec ID : 40
Duration : 4mn 3s
Bit rate mode : Variable
Bit rate : 328 Kbps
Maximum bit rate : 475 Kbps
Channel(s) : 2 channels
Channel positions : Front: L R
Sampling rate : 48.0 KHz
Compression mode : Lossy
Delay relative to video : 2s 0ms
Stream size : 9.51 MiB (58%)
Language : English
Encoded date : UTC 2013-07-16 16:50:22
Tagged date : UTC 2013-07-16 16:51:03
Sponsored Links
Loading Facebook Comments ...

Leave a Reply

Your email address will not be published. Required fields are marked *