MacProVideo – Reason 6 404: Recording and Producing Vocals [ENG]

By | December 22, 2016

Sponsored Links

When it comes to recording and editing vocal performances, Reason 6 gives you limitless possibilities! Come along for the ride as Reason wizard Hollin Jones shows you how he creates platinum vocal tracks in Reason 6…

Great sounding vocal makes a great song even better. They draw in the listener and create an unforgettable emotional experience. But how do you craft that perfect take and find the right emotion and the right energy? Enter Reason expert Hollin Jones who shares his vast Reason experience and reveals some of his best tips and tricks so you, too, can make the most out of your vocal tracks.

First you’ll learn how to accurately set up your audio interface to get the best sonics possible before you hit that “Big Red Button” . Hollin also explains how to create a comfortable atmosphere for your singer using Reason’s rich reverb and delays while recording. You’ll get to hear a take as it’s being recorded and see just how magical Clip Safe’s healing capabilities are when recording your vocal using Balance: Reason’s new hardware partner.

Sometimes the best performance happens over several takes, but not always in one go…so Hollin demonstrates how you can use the best parts of each take and put them together into one killer track! This chock-full-of-tips tutorial also opens up a lot of sonic doors by showing you how to compress, bend and twist your vocal tracks using Reason’s unique tools and effects.

Sponsored Links
Content
1: Recording & Editing
2:04
1. Introduction to Vocals in Reason
6:04
2. Setting Audio Preferences
3:36
3. Recording Levels & Clip Safe
5:30
4. Recording Using Insert Effects
3:49
5. An Example of Recording Too Loud
03:14
6. An Example of a Clean Vocal Take
3:07
7. Understanding Audio Clip Envelopes
4:31
8. Clip Editing in Song View
3:00
9. Audio Editing in Edit View
4:28
10. Compositing Vocals – Part 1
4:59
11. Compositing Vocals – Part 2
4:19
12. Importing Loops & Timestretching
2: Adding FX & Processing
3:22
13. The Insert Effects System
5:06
14. Using Compression on Vocals
3:03
15. Insert Effect Chain Presets
4:09
16. Adding Space With Reverb
6:31
17. Echo and Delay on Vocals
3:27
18. Understanding EQ
2:06
19. Distortion on Vocals
2:44
20. The Pulveriser
03:42
21. Trance Vocal FX with Alligator
3: Pitch Shifting & Sampling
3:55
22. Double-tracking Vocals
4:13
23. Pitch Shifting & Harmonies
4:34
24. Sampling Audio
5:04
25. Arranging and Mixing Vocal Tracks
4: Neptune & Vocoding with Vocals
4:37
26. Neptune Pitch Adjuster Basics
5:11
27. Transposing Audio in Realtime
5:50
28. MIDI and Voice Synthesis
4:40
29. Vocoding in Reason – Part 1
2:09
30. Vocoding in Reason – Part 2
1:18
31. Wrap-up
MI
Video
ID: 1
Format: AVC
Format / Info: Advanced Video Codec
Format profile: [email protected]
Format settings, CABAC: No
Format settings, ReFrames: 2 frames
Format settings, GOP: M = 2, N = 30
Codec ID: avc1
Codec ID / Info: Advanced Video Coding
Duration: 2mn 4s
Bit rate: 181 Kbps
Width: 960 pixels
Height: 540 pixels
Display aspect ratio: 16: 9
Frame rate mode: Constant
Frame rate: 10.000 fps
Color space: YUV
Chroma subsampling: 4: 2: 0
Bit depth: 8 bits
Scan type: Progressive
Bits / (Pixel * Frame): 0.035
Stream size: 2.68 MiB (64%)
Language: English
Encoded date: UTC 2012-06-07 21:02:08
Tagged date: UTC 2012-06-07 21:02:08
Color primaries: BT.709-5, BT.1361, IEC 61966-2-4, SMPTE RP177
Transfer characteristics: BT.709-5, BT.1361
Matrix coefficients: BT.709-5, BT.1361, IEC 61966-2-4 709, SMPTE RP177
Audio
ID: 2
Format: AAC
Format / Info: Advanced Audio Codec
Format profile: LC
Codec ID: 40
Duration: 2mn 3s
Bit rate mode: Constant
Bit rate: 98.1 Kbps
Nominal bit rate: 112 Kbps
Channel (s): 2 channels
Channel positions: Front: LR
Sampling rate: 44.1 KHz
Compression mode: Lossy
Stream size: 1.44 MiB (35%)
Language: English
Encoded date: UTC 2012-06-07 21:02:08
Tagged date: UTC 2012-06-07 21:02:08

Another Post

Loading Facebook Comments ...

Leave a Reply

Your email address will not be published. Required fields are marked *