MacProVideo – (The) Art of Audio Recording: Recording Strings [ENG]

By | December 22, 2016

Sponsored Links

Learn how to record a live string section (violas, cellos and double basses) and correctly processed in this informative new training program under the guidance of an experienced engineer, Clint Murphy.

Learn how to record a live string section in this informative new tutorial by expert audio engineer, Clint Murphy, at Modern World Recording …

Violins, violas, celli and double basses. Imagine having the opportunity to record a live string section: Where do you begin? In this step-by-step tutorial, produced by the experts at Sing Canary, you’ll see and hear everything you need to know to setup, mic and record strings.
Recording orchestral instruments is an art that requires precise setup, positioning and knowledge of acoustics. It also requires you to understand the way these instruments produce sound. This tutorial explains the precise microphone positioning needed to bring out the rich tones these classical instruments produce.

Once the section is recorded, you’re taken back into the studio for a look at EQ, compression and mixing techniques. From there you’ll also learn about overdubbing techniques that transform small ensembles into full string orchestras.

Every engineer has to be ready for any recording situation. This tutorial, Recording Strings, gives you the foundation you need to create awesome sounding orchestral sessions.

Sponsored Links
Content
1: Prologue
1:26
1. Prologue
2: Introduction
2:04
2. Introduction
3: Small Ensemble Mic Setup
3:19
3. Stereo Mic Technique
00:56
4. Room Mic Summary
5:27
5. Spot Mic Technique
00:30
6. Spot Mic Summary
00:43
7. Round Up of Mic Set Up
4: Small Ensemble Recording
3:19
8. Mic Preamps, Phase & Gain
1:38
9. Filtering The Spot Mics
1:15
10. Compressing Strings
1:55
11. Tracking The Strings
4:59
12. The Quintet Session – Part 1
6:54
13. The Quintet Session – Part 2
5: Large Ensemble Techniques
2:57
14. Large Section Mic Set Up
00:58
15. Large Section Decca Tree
5:31
16. The 19-Piece Session
MI
Video
ID: 1
Format: AVC
Format / Info: Advanced Video Codec
Format profile: [email protected]
Format settings, CABAC: No
Format settings, ReFrames: 2 frames
Format settings, GOP: M = 1, N = 50
Codec ID: avc1
Codec ID / Info: Advanced Video Coding
Duration: 1mn 26s
Bit rate: 191 Kbps 1
Width: 960 pixels
Height: 540 pixels
Display aspect ratio: 16: 9
Frame rate mode: Constant
Frame rate: 25.000 fps
Color space: YUV
Chroma subsampling: 4: 2: 0
Bit depth: 8 bits
Scan type: Progressive
Bits / (Pixel * Frame): 0.092
Stream size: 12.2 MiB (92%)
Language: English
Encoded date: UTC 2012-01-12 19:55:40
Tagged date: UTC 2012-01-12 19:55:40
Color primaries: BT.709-5, BT.1361, IEC 61966-2-4, SMPTE RP177
Transfer characteristics: BT.709-5, BT.1361
Matrix coefficients: BT.709-5, BT.1361, IEC 61966-2-4 709, SMPTE RP177
Audio
ID: 2
Format: AAC
Format / Info: Advanced Audio Codec
Format profile: LC
Codec ID: 40
Duration: 1mn 25s
Bit rate mode: Constant
Bit rate: 104 Kbps
Nominal bit rate: 112 Kbps
Channel (s): 2 channels
Channel positions: Front: LR
Sampling rate: 44.1 KHz
Compression mode: Lossy
Stream size: 1.06 MiB (8%)
Language: English
Encoded date: UTC 2012-01-12 19:55:40
Tagged date: UTC 2012-01-12 19:55:40

Another Post

Loading Facebook Comments ...

Leave a Reply

Your email address will not be published. Required fields are marked *