The Recording Revolution – JumpStart To Mastering [ENG]

By | December 29, 2016

Sponsored Links

Ah, the endless debate over mastering. Is it the magic pill for your mixes? Heck no. But if you know what you’re doing it can really help. JumpStart To Mastering will get you on the can really help. JumpStart To Mastering will get you on the path to mastering your own material so you can get the absolute best out of your mixes. You want to deliver tracks that will sound good out in the real world and this video series will help you do just that!

What You Should Have Learned In School

Whether you’ve been to a prestigious audio engineering school or you started mixing music as a hobby, one thing is for sure: we all need to know some foundational basics to the art of mixing if we ever expect to make killer pro mixes. The JumpStart series of videos provide that foundation and are your roadmap to better mixes!

Without wasting any time, each JumpStart video tells you exactly what you need to know to start seeing the mixing results you want. After one hour of watching these videos you will be able to:

Sponsored Links
Bullet Create separation and clarity in your mixes through EQ
Bullet Wield compression to either reign in a dynamic vocal or fatten up a snare
Bullet Tighten up out-of-time drums and bass and get your vocals to sit in the “pocket”
Bullet Put together a radio-ready mix that is compelling from start to finish
Bullet Confidently master your own mixes to release to the world!
MI
Video
ID : 1
Format : AVC
Format/Info : Advanced Video Codec
Format profile : [email protected]
Format settings, CABAC : No
Format settings, ReFrames : 2 frames
Codec ID : avc1
Codec ID/Info : Advanced Video Coding
Duration : 12mn 59s
Bit rate mode : Variable
Bit rate : 326 Kbps
Maximum bit rate : 12.7 Mbps
Width : 960 pixels
Height : 540 pixels
Display aspect ratio : 16:9
Frame rate mode : Constant
Frame rate : 29.970 fps
Color space : YUV
Chroma subsampling : 4:2:0
Bit depth : 8 bits
Scan type : Progressive
Bits/(Pixel*Frame) : 0.021
Stream size : 30.2 MiB (73%)
Language : English
Encoded date : UTC 2011-07-14 21:51:51
Tagged date : UTC 2011-07-14 22:11:19
Color primaries : BT.709-5, BT.1361, IEC 61966-2-4, SMPTE RP177
Transfer characteristics : BT.709-5, BT.1361
Matrix coefficients : BT.709-5, BT.1361, IEC 61966-2-4 709, SMPTE RP177
Audio
ID : 2
Format : AAC
Format/Info : Advanced Audio Codec
Format profile : LC
Codec ID : 40
Duration : 12mn 58s
Bit rate mode : Constant
Bit rate : 114 Kbps
Nominal bit rate : 128 Kbps
Channel(s) : 2 channels
Channel positions : Front: L R
Sampling rate : 44.1 KHz
Compression mode : Lossy
Stream size : 10.6 MiB (26%)
Language : English
Encoded date : UTC 2011-07-14 21:51:52
Tagged date : UTC 2011-07-14 22:11:19
Manufacturer: The Recording Revolution
Author: Graham Cochrane 
Duration: 55 minutes 
Type of material: Video Tutorial
Language: English 
Sample Files: not provided 
Video format: m4v

Another Post

Loading Facebook Comments ...

Leave a Reply

Your email address will not be published. Required fields are marked *